Sampler module: flac stutters

Found a bug? Post it here.
Post Reply
User avatar
atte
Posts: 1
Joined: Sat Mar 02, 2013 6:04 pm

Sampler module: flac stutters

Post by atte » Mon Mar 04, 2013 1:21 pm

Hi

I have my entire sample library in flac, and there seems to be some issues with loading those in sunvox. Short files are loaded several times after each other, so that when I press E6 I hear the sound three or four (or something) times, like it loops. Looking at the waveform, it's simply loaded several times after each other.

Here are a sample that shows the problem in flac, the wav is working just fine:

https://dl.dropbox.com/u/4343030/oh.flac
https://dl.dropbox.com/u/4343030/oh.wav

NB: I'm running linux (ubuntu 12.10).

I believe the following output to the terminal from which sunvox is started is relevant (this happens when loading the flac file):

Code: Select all

ffmpeg version 0.8.5-6:0.8.5-0ubuntu0.12.10.1, Copyright (c) 2000-2012 the Libav developers
  built on Jan 24 2013 14:52:53 with gcc 4.7.2
*** THIS PROGRAM IS DEPRECATED ***
This program is only provided for compatibility and will be removed in a future release. Please use avconv instead.
Input #0, flac, from '/home/atte/oh.flac':
  Duration: 00:00:00.34, bitrate: 691 kb/s
    Stream #0.0: Audio: flac, 44100 Hz, 2 channels, s16
Output #0, wav, to '/tmp/sunvox_temp.wav':
  Metadata:
    encoder         : Lavf53.21.1
    Stream #0.0: Audio: pcm_s16le, 44100 Hz, 2 channels, s16, 1411 kb/s
Stream mapping:
  Stream #0.0 -> #0.0
Press ctrl-c to stop encoding
Multiple frames in a packet from stream 0
size=     237kB time=1.37 bitrate=1411.5kbits/s    
video:0kB audio:237kB global headers:0kB muxing overhead 0.018979%
Atte
Atte

User avatar
NightRadio
Site Admin
Posts: 3155
Joined: Fri Jan 23, 2004 12:28 am
Location: Ekaterinburg. Russia
Contact:

Re: Sampler module: flac stutters

Post by NightRadio » Wed Mar 06, 2013 8:02 am

Ok, thank you. I will check this

Post Reply